Skip to main content

Camper Van Beethoven Live at Pappy & Harriet's Pioneertown Palace on 2009-09-11




Disc 1 (51:50.72)
01. intro
02. Waka
03. Pictures Of Matchstick Men
04. Mao Reminisces About His Days In Southern China
05. The History Of Utah
06. The Long Plastic Hallway
07. Turquoise Jewelry
08. Skinhead Stomp - White Riot - Wasted - Shut Us Down
09. R 'N' R Uzbekistan
10. Good Guys & Bad Guys
11. Cowboys From Hollywood
12. Might Makes Right
13. Payed Vacation: Greece
14. When I Win The Lottery
15. L'Aguardiente

Disc 2 (60:27.41)
16. Tina
17. New Roman Times
18. Sweethearts
19. All Her Favorite Fruit
20. Tania
21. Take The Skinheads Bowling
22. (We're A) Bad Trip
23. banter - we'll be here all week -> Processional
24. Eye Of Fatima
25. She Divines Water
26. Seven Languages
27. encore break
28. Interstellar Overdrive
29. recordist's signout


Collection CamperVanBeethoven
Band/Artist Camper Van Beethoven
Venue Pappy & Harriet's Pioneertown Palace
Location Pioneertown, CA

Source AKG C522MS ("The Pickle Mic") > Grace Lunatec V3 (mic preamp & A>D converter) + Soundcraft 800B SBD > Edirol R44 > WAVs @48kHz/24bit
Lineage WAVs > Audacity 1.2.6a (delay SBD feed approx 28.3ms, matrix mid/side, adjust gains as follows: SBD + 3dB, Side channel -3, convert sample rate to 44.1kHz/16bit) > xACT 1.64 > FLAC level 8
Taped by morst, with gear provided by Jason "Picklemic" Loomis of Team Pickle - THANKS!
Transferred by morst

Notes

Friday, September 11, 2009
Outdoor Stage

5th Annual Cracker / Camper Van Beethoven Family Reunion Campout

Almost the entire show played with David Immergl├╝ck on Pedal Steel or Mandolin, and Vocals.

FoH: Casey Martin

SHNTOOL:
length expanded size cdr WAVE problems fmt ratio filename
0:58.00 10231244 B --- -- ---xx CVB2009-09-11-MTX-d1t01.flac
2:48.54 29762252 B --- -- ---xx CVB2009-09-11-MTX-d1t02.flac
4:24.31 46642556 B --- -- ---xx CVB2009-09-11-MTX-d1t03.flac
1:56.26 20523596 B --- -- ---xx CVB2009-09-11-MTX-d1t04.flac
3:02.17 32144828 B --- -- ---xx CVB2009-09-11-MTX-d1t05.flac
5:21.40 56718524 B --- -- ---xx CVB2009-09-11-MTX-d1t06.flac
3:10.09 33537212 B --- -- ---xx CVB2009-09-11-MTX-d1t07.flac
6:53.53 72977900 B --- -- ---xx CVB2009-09-11-MTX-d1t08.flac
1:16.69 13568732 B --- -- ---xx CVB2009-09-11-MTX-d1t09.flac
4:46.31 50523356 B --- -- ---xx CVB2009-09-11-MTX-d1t10.flac
2:03.47 21807788 B --- -- ---xx CVB2009-09-11-MTX-d1t11.flac
3:04.41 32554076 B --- -- ---xx CVB2009-09-11-MTX-d1t12.flac
2:07.66 22558076 B --- -- ---xx CVB2009-09-11-MTX-d1t13.flac
4:06.05 43406204 B --- -- ---xx CVB2009-09-11-MTX-d1t14.flac
5:50.33 61817660 B --- -- ---xx CVB2009-09-11-MTX-d1t15.flac
2:08.10 22602764 B --- -- ---xx CVB2009-09-11-MTX-d2t01.flac
4:58.53 52691900 B --- -- ---xx CVB2009-09-11-MTX-d2t02.flac
4:50.07 51172508 B --- -- ---xx CVB2009-09-11-MTX-d2t03.flac
5:12.37 55123868 B --- -- ---xx CVB2009-09-11-MTX-d2t04.flac
4:01.68 42672380 B --- -- ---xx CVB2009-09-11-MTX-d2t05.flac
2:33.00 26989244 B --- -- ---xx CVB2009-09-11-MTX-d2t06.flac
4:31.39 47896172 B --- -- ---xx CVB2009-09-11-MTX-d2t07.flac
4:52.71 51675836 B --- -- ---xx CVB2009-09-11-MTX-d2t08.flac
5:19.65 56424524 B --- -- ---xx CVB2009-09-11-MTX-d2t09.flac
4:14.31 44878556 B --- -- ---xx CVB2009-09-11-MTX-d2t10.flac
4:46.62 50596268 B --- -- ---xx CVB2009-09-11-MTX-d2t11.flac
1:12.08 12719660 B --- -- ---xx CVB2009-09-11-MTX-d2t12.flac
11:09.07 118028108 B --- -- ---xx CVB2009-09-11-MTX-d2t13.flac
0:36.33 6428060 B --- -- ---xx CVB2009-09-11-MTX-d2t14.flac
112:18.38 1188673852 B 0.5526 (29 files)

~=~=~=~=~=~=~=~=~=~=~=~=~=~=~=~=~=~=~=~=~=~=~=~=~
Soundscape Preservation Society Founded 1991
http://www.iamtypingwithonefinger.com/SPS.html
~=~=~=~=~=~=~=~=~=~=~=~=~=~=~=~=~=~=~=~=~=~=~=~=~

Reviews

Reviewer: Pulver@Noyo - - October 24, 2009
Subject: Very Nice!
Great recording, good performance. What else do ya' want?
Reviewer: pwig - - September 19, 2009
Subject: Required listening!
This recording is fantastic! Nice work Morst!
Reviewer: iamacracker2 - - September 18, 2009
Subject: The CVB rocks the desert!
Great setlist and outstanding job of mixing~sounds perfect!
Reviewer: taperj - - September 18, 2009
Subject: Nice work
Great stuff Tom, sounds excellent. For anyone reading this... this is a really nice matrix of a good show. Hit play. :)
DOWNLOAD OPTIONS
Uploaded by
morst
on 9/17/2009
Views
3,149
Favorites
3
Reviews
4
PEOPLE ALSO FOUND
Camper Van Beethoven
by Camper Van Beethoven
410
0
0
Camper Van Beethoven
by Camper Van Beethoven
2,677
0
1
( 1 reviews )
Source: Sony ECM-717 > Sharp Minidisc MD-MT190
Camper Van Beethoven
by Camper Van Beethoven
148
0
0
Source: soundboard > Sony D5 > TDK MA90 cassette master tape
Camper Van Beethoven
by Camper Van Beethoven
9,939
0
1
( 1 reviews )
Source: Sony ECM-717 > Sharp MD-MT190MD
Camper Van Beethoven
by Camper Van Beethoven
348
0
0
Source: audience > Sony WM-D6c > MCAS
Camper Van Beethoven
by Camper Van Beethoven
1,416
1
0
Source: AT822 > D7(line in) > DATM
Camper Van Beethoven
by Camper Van Beethoven
1,883
2
0
Source: B&K 4011-> Lunatec V2-> Benchmark AD2K+ FOB
Camper Van Beethoven
by Camper Van Beethoven
177
1
0
Source: SBD + AUD mix @24/48
Camper Van Beethoven
by Camper Van Beethoven
1,215
1
0
Source: Audience recording > WAV
Camper Van Beethoven
by Camper Van Beethoven
1,559
1
0
Source: DPA 4061 > Sony PCM-D50 > WAV @48/24